HDSky伟德国际娱乐论坛

 找回密码
 立即注册
用QQ账号登陆 用微博账号登陆 只需一步,快速开始
 精彩推荐 (提示:迅雷无法下载,请尝试百度网盘离线、BitComet、Utorrent 、IDM等下载工具),好电影,怎能只看一次!
查看: 233|伟德手机版bet1946mobi: 12
打印 上一主题 下一主题

[城中大盗(加长版)].The.Town.2010.BluRay.720p.x264.AC3-CMCT[中英字幕/3.2G]

[复制链接]
8458主题 0好友 4万积分
版主
Rank: 7Rank: 7Rank: 7
  • TA的每日心情
    开心
    2014-5-27 12:29
  • 签到天数: 4 天[LV.2]偶尔看看I
    激情
    17273
    金币
    17343
    威望
    0
    积分
    44721
    帖子
    10105
    跳转到指定楼层
    楼主
    发表于 2014-5-10 00:22:33 |只看该作者 |倒序浏览


    ※※※※※※※ 影片信息 ※※※※※※※
    ◎影片原名 The Town
    ◎中文译名 城中大盗/小镇/镇上/狂盗之城(港)/窃盗城(台)
    ◎出品公司 Warner Bros. Pictures
    ◎出品年代 2010 年
    ◎上映日期 2010年9月17日 美国
    ◎影片级别 USA:R (certificate #46118) | Malaysia:18 | UK:15 | Canada:14A (Ontario) | Ireland:15A
    ◎官方网站 http://thetownmovie.warnerbros.com/
    ◎电影下载      IMDB网址  http://www.imdb.com/title/tt0840361/
    ◎IMDB评分 7.9/10 (23,959 votes)
    ◎国  家 美国
    ◎类  别 犯罪/剧情/惊悚
    ◎影片长度 150 Mins
    ◎对白语言 英语
    ◎导  演 本·阿弗莱克 Ben Affleck
    ◎主  演 本·阿弗莱克 Ben Affleck ... Doug MacRay
          丽贝卡·豪尔 Rebecca Hall ... Claire Keesey
          乔·哈姆 Jon Hamm ... FBI SA Adam Frawley
          杰瑞米·雷纳 Jeremy Renner ... James Coughlin
          布蕾克·莱弗利 Blake Lively ... Krista Coughlin
          Slaine ... Albert 'Gloansy' Magloan
          Owen Burke ... Desmond Elden
          Titus Welliver ... Dino Ciampa
          皮特·波斯尔思韦特 Pete Postlethwaite ... Fergus 'Fergie' Colm
          克里斯·库柏 Chris Cooper ... Stephen MacRay
          Dennis McLaughlin ... Rusty
          Corzna Chase ... Agent Quinlan
          Brian Scannell ... Henry
          Kerri Dunbar ... Henry's Girl
          Tony V. ... Vericom Crew Chief
    ※※※※※※※ 资料信息 ※※※※※※※
    ◎内容简介 
      四个银行大盗欲抢劫马赛诸塞州的查尔斯镇银行,但是却被FBI警探发现并追捕。在四人中道格·麦克雷(本·阿弗莱克饰)无疑是经验最丰富的窃贼,但是在这场危险的抢劫中,他却爱上了银行经理克莱尔(丽贝卡·豪尔饰)。而同时,FBI警探亚当(乔·哈姆饰)正试图在四个大盗抢劫另一个银行前抓捕他们,而道格也在这被追捕的危险与这段新的恋情间苦苦挣扎。
    一句话评论
      一部新类型的波士顿犯罪电影。——《纽约时报》
      本片完全可以刷新观众过去对于本·阿弗莱克的看法。——《娱乐周刊》
      这样的电影才能完全发挥本·阿弗莱克的演戏天分。——《今日美国》
    幕后制作
      谈及影片的灵感来源,阿弗莱克说:“我想要为一个罪犯‘歌功颂德’,一个几乎与暴力无关的罪犯。我的主要任务就是将道德上的考量与故事的真实性统一协调起来,并尽可能地做到结构复杂但情节精确,我不想使这个故事显得太过简单。”
      阿弗莱克表示,为了拍摄影片,他寻访了当地的监狱,并通过与曾经的银行劫犯以及FBI探员接触更进一步地了解相关事件和人物的细节。阿弗莱克表示,他力图在各方面做到真实可信,“如果你对电影故事的发生地没能产生深刻印象,如果你不是真的相信角色就在那里诞生,你看到的一切曾经真的发生过,那么你就不会喜欢或者认可这部电影。”至于为何前作《失踪的宝贝》和新作《城中大盗》都以波士顿为背景,阿弗莱克坦言:“老实说,我拍这部影片有点犹豫不决,因为我不想被看作是‘波士顿导演’,但是我很喜欢片中的主角,我想要演他,同时我觉得整个故事也很不错。”
      谈到《城中大盗》的主题,本·阿弗莱克表示,自己的导演作品与和老友马特·达蒙一同编剧、出演并曾获得奥斯卡最佳原创剧本奖的《心灵捕手》聚焦的都是相似的主题某种特定的地点和环境对人的成长造成的影响,以及孩子往往在为父母的罪过埋单。“我想也许我也应该尝试些新的东西了。”阿弗莱克希望自己在导演的道路上走得更远,“第一次当导演的时候我紧张极了,不敢相信我能拍完一部电影。当我第二次当导演的时候,至少我明白自己一定能拍完,《城中大盗》令我收获了更多自信。”
    花絮
      ·片名“The Town”指的是故事发生地波士顿的查尔斯城(Charlestown),一个介于查尔斯河和神秘河(影片《神秘河》以此为名)之间的爱尔兰裔众多的蓝领社区,银行抢劫案高发。
      ·布蕾克·莱弗利在本片拍摄的首日就要与本·阿弗莱克表演床戏,这无疑是对她的一个尴尬的挑战。显然,她本人对此印象深刻,所以影片杀青之后,她还不忘对本说,“第一天就拍床戏对我来说太尴尬了,所以我要感谢你的指导。”,本的回答也很直截了当,“不客气!”。
      ·丽贝卡·豪尔身高矮小,但与她演对手戏的本·阿弗莱克与乔·哈姆都体形高大,这样悬殊的身高差距对摄影师也是个挑战,据丽贝卡透露,摄影师甚至无奈地询问,“你介意下个镜头站在梯子上让我拍摄吗?”
    ※※※※※※※ 参数信息 ※※※※※※※
    D:9si完成城中大盗.2010£CMCT君子九思[城中大盗].The.Town.2010.Extended.Cut.BluRay.720p.x264.AC3-CMCT.mkv
       General
          Complete name : D:9si完成城中大盗.2010£CMCT君子九思[城中大盗].The.Town.2010.Extended.Cut.BluRay.720p.x264.AC3-CMCT.mkv
          Format : Matroska
          File size : 3.20 GiB
          Duration : 2h 30mn
          Overall bit rate : 3 040 Kbps
          Encoded date : UTC 2010-12-12 00:59:03
          Writing application : mkvmerge v3.4.0 ('Rapunzel') 编译于 May 15 2010 09:38:20
          Writing library : libebml v0.8.0 + libmatroska v0.9.0
       Video #1
          ID : 1
          Format : AVC
          Format/Info : Advanced Video Codec
          Format profile : High@L4.1
          Format settings, CABAC : Yes
          Format settings, ReFrames : 4 frames
          Codec ID : V_MPEG4/ISO/AVC
          Duration : 2h 30mn
          Bit rate : 2 591 Kbps
          Width : 1 280 pixels
          Height : 720 pixels
          Display aspect ratio : 16:9
          Frame rate : 23.976 fps
          Color space : YUV
          Chroma subsampling : 4:2:0
          Bit depth : 8 bits
          Scan type : Progressive
          Bits/(Pixel*Frame) : 0.117
          Stream size : 2.66 GiB (83%)
          Title : 城中大盗 CMCT出品
          Writing library : x264 core 98 r1649 c54c47d
          Encoding settings : cabac=1 / ref=3 / deblock=1:0:0 / analyse=0x3:0x113 / me=hex / subme=7 / psy=1 / psy_rd=1.00:0.00 / mixed_ref=1 / me_range=16 / chroma_me=1 / trellis=1 / 8x8dct=1 / cqm=0 / deadzone=21,11 / fast_pskip=1 / chroma_qp_offset=-2 / threads=6 / sliced_threads=0 / nr=0 / decimate=1 / interlaced=0 / constrained_intra=0 / bframes=3 / b_pyramid=2 / b_adapt=1 / b_bias=0 / direct=1 / weightb=1 / weightp=2 / keyint=250 / keyint_min=25 / scenecut=40 / intra_refresh=0 / rc_lookahead=40 / rc=2pass / mbtree=1 / bitrate=2591 / ratetol=1.0 / qcomp=0.60 / qpmin=10 / qpmax=51 / qpstep=4 / cplxblur=20.0 / qblur=0.5 / ip_ratio=1.40 / aq=1:1.00
          Language : English
       Audio #2
          ID : 2
          Format : AC-3
          Format/Info : Audio Coding 3
          Mode extension : CM (complete main)
          Codec ID : A_AC3
          Duration : 2h 30mn
          Bit rate mode : Constant
          Bit rate : 448 Kbps
          Channel(s) : 6 channels
          Channel positions : Front: L C R, Side: L R, LFE
          Sampling rate : 48.0 KHz
          Bit depth : 16 bits
          Stream size : 482 MiB (15%)
          Language : English
       Text #3
          ID : 3
          Format : ASS
          Codec ID : S_TEXT/ASS
          Codec ID/Info : Advanced Sub Station Alpha
          Title : 中上英下
          Language : Chinese
       Text #4
          ID : 4
          Format : ASS
          Codec ID : S_TEXT/ASS
          Codec ID/Info : Advanced Sub Station Alpha
          Title : 英上中下
          Language : English
       Text #5
          ID : 5
          Format : ASS
          Codec ID : S_TEXT/ASS
          Codec ID/Info : Advanced Sub Station Alpha
          Title : 简体中文
          Language : Chinese
       Text #6
          ID : 6
          Format : ASS
          Codec ID : S_TEXT/ASS
          Codec ID/Info : Advanced Sub Station Alpha
          Title : English
          Language : English
    ※※※※※※※ 截图信息 ※※※※※※※








    城中大盗.2010.torrent (132.31 KB, 下载次数: 31)

    备用迅雷快传下载地址:



    支付宝扫码 打赏

    微信扫一扫 打赏
    郑重声明 HDSky所有影视作品来自互联网公开渠道,内容系自动转载供网友交流学习,影视版权均归原电影公司所有, 我们不提供任何影片压制、存储及传播服务,如果喜欢请购买正版!转载内容如有侵权请与 admin@hdsky.net 联系 我们将尽快删除!
    25主题 0好友 1302积分
    荣升主角 Lv.5
    Rank: 6Rank: 6
  • TA的每日心情

    2013-10-23 21:38
  • 签到天数: 1 天[LV.1]初来乍到
    激情
    50
    金币
    46
    威望
    0
    积分
    1302
    帖子
    1202
    沙发
    发表于 2014-5-10 00:23:18 |只看该作者
    谢谢楼主谢谢楼主
    11主题 0好友 1217积分
    初级观众 Lv.1
    Rank: 1 该用户从未签到
    激情
    21
    金币
    21
    威望
    0
    积分
    1217
    帖子
    1171
    板凳
    发表于 2014-5-10 00:24:25 |只看该作者
    LZ人真好都不用伟德手机版bet1946mobi查看
    334主题 0好友 2905积分
    荣升主角 Lv.5
    Rank: 6Rank: 6 该用户从未签到
    激情
    672
    金币
    672
    威望
    0
    积分
    2905
    帖子
    1555
    地板
    发表于 2014-5-10 00:25:29 |只看该作者
    好像看过了,那个面具好眼熟!
    acchoo2014 该用户已被删除
    5#
    发表于 2014-5-10 00:27:29 |只看该作者
    提示: 作者被禁止或删除 内容自动屏蔽
    16主题 0好友 1226积分
    荣升主角 Lv.5
    Rank: 6Rank: 6 该用户从未签到
    激情
    28
    金币
    28
    威望
    0
    积分
    1226
    帖子
    1169
    6#
    发表于 2014-5-10 00:46:38 |只看该作者
    本·阿弗莱克 其实还是很有才的……
    16主题 0好友 1232积分
    荣升主角 Lv.5
    Rank: 6Rank: 6
  • TA的每日心情
    无聊
    2014-3-1 22:47
  • 签到天数: 1 天[LV.1]初来乍到
    激情
    24
    金币
    24
    威望
    0
    积分
    1232
    帖子
    1177
    7#
    发表于 2014-5-10 00:49:59 |只看该作者
    剧情挺好的,下载看看!谢谢楼主!
    12主题 0好友 1216积分
    荣升主角 Lv.5
    Rank: 6Rank: 6 该用户从未签到
    激情
    18
    金币
    18
    威望
    0
    积分
    1216
    帖子
    1175
    8#
    发表于 2014-5-10 00:52:10 |只看该作者
    号东西啊号东西啊
    0主题 0好友 29积分
    初级观众 Lv.1
    Rank: 1
  • TA的每日心情
    慵懒
    2018-10-11 16:40
  • 签到天数: 3 天[LV.2]偶尔看看I
    激情
    14
    金币
    6
    威望
    0
    积分
    29
    帖子
    9
    9#
    发表于 2018-10-11 16:40:21 |只看该作者
    谢谢分享资源
    伟德手机版bet1946mobi 使用道具 举报
    0主题 0好友 394积分
    群众演员 Lv.3
    Rank: 3Rank: 3
  • TA的每日心情
    开心
    2018-9-6 11:40
  • 签到天数: 28 天[LV.4]偶尔看看III
    激情
    224
    金币
    0
    威望
    0
    积分
    394
    帖子
    170
    10#
    发表于 2018-10-11 16:45:10 |只看该作者
    好电影,谢楼主
    伟德手机版bet1946mobi 使用道具 举报
    您需要登录后才可以回帖 登录 | 立即注册
    Archiver|手机版|HDSky伟德国际娱乐论坛 GMT+8, 2018-10-20 13:00 , Processed in 0.129655 second(s), 43 queries .
    Powered by Discuz! X2.5 © 2012-2016 HDSky Inc.
    回顶部