HDSky伟德国际娱乐论坛

 找回密码
 立即注册
用QQ账号登陆 用微博账号登陆 只需一步,快速开始
查看: 21883|伟德手机版bet1946mobi: 669
打印 上一主题 下一主题

[4K视频] 全球首部4K电影(TimeScapes时间的风景)画面美得让人窒息H265编码版/1.8G

  [复制链接]
4480主题 31好友 452万积分
管理员
Rank: 9Rank: 9Rank: 9
  • TA的每日心情
    开心
    5 天前
  • 签到天数: 135 天[LV.7]常住居民III
    激情
    17437
    金币
    4446400
    威望
    27225
    积分
    4527419
    帖子
    8972
    宣传大使 原创先锋奖 回帖大师 最佳帅哥奖 热心助人奖 管理人员勋章 财富大师奖 巡查大使勋章 特殊贡献奖 魅力会员奖 个性SHOW奖 时尚达人 在线王 天秤座 终身成就奖 知名影评人勋章 精品大师奖
    跳转到指定楼层
    楼主
    发表于 2015-4-21 10:41:00 |只看该作者 |倒序浏览
    感受H265编码的魅力,时间的风景TimeScapes.2012[2160P/MKV/1.84G]

    4k1.jpg
    4k2.jpg
    4k3.jpg
    4k4.jpg

    【全球首部4K电影时光风景】时长约48分钟。大小约2G。

    这次作为全球首部4K电影,其镜头画面简直美得让人窒息。H.265版本,超小的容量体积(你值得拥有!)

    来感受H265编码的魅力。喜欢的就体验一下吧。


    General
    Complete name                  : D:\4K123.com\4K风光6声道H265时间的风景2012.mkv
    Format                         : Matroska
    Format version                 : Version 1
    File size                      : 1.84 GiB
    Duration                       : 48mn 21s
    Overall bit rate               : 5 450 Kbps
    Writing application            : DivXMKVMux 9.8.11.3853
    Writing library                : libDivXMediaFormat 4.0.0.0578

    Video
    ID                             : 1
    Format                         : HEVC
    Format/Info                    : High Efficiency Video Coding
    Codec ID                       : V_MPEGH/ISO/HEVC
    Duration                       : 48mn 21s
    Bit rate                       : 4 702 Kbps
    Width                          : 3 840 pixels
    Height                         : 2 160 pixels
    Display aspect ratio           : 16:9
    Frame rate mode                : Constant
    Frame rate                     : 23.976 fps
    Bits/(Pixel*Frame)             : 0.024
    Stream size                    : 1.59 GiB (86%)
    Language                       : English
    Default                        : Yes
    Forced                         : No

    Audio
    ID                             : 2
    Format                         : AC-3
    Format/Info                    : Audio Coding 3
    Mode extension                 : CM (complete main)
    Format settings, Endianness    : Big
    Codec ID                       : A_AC3
    Duration                       : 48mn 21s
    Bit rate mode                  : Constant
    Bit rate                       : 640 Kbps
    Channel(s)                     : 6 channels
    Channel positions              : Front: L C R, Side: L R, LFE
    Sampling rate                  : 48.0 KHz
    Bit depth                      : 16 bits
    Compression mode               : Lossy
    Stream size                    : 221 MiB (12%)
    Language                       : English
    Default                        : Yes
    Forced                         : No

    伟德手机版bet1946mobi下载:

    xiazai.jpg
    游客,如果您要查看本帖隐藏内容请伟德手机版bet1946mobi  VIP免伟德手机版bet1946mobi、免金币快速下载全站资源 自助在线开通VIP



    支付宝扫码领 红包

    微信扫一扫 打赏
    郑重声明 HDSky所有影视作品来自互联网公开渠道,内容系自动转载供网友交流学习,影视版权均归原电影公司所有, 我们不提供任何影片压制、存储及传播服务,如果喜欢请购买正版!转载内容如有侵权请与 admin@hdsky.net 联系 我们将尽快删除!
    0主题 0好友 109积分
    普通观众 Lv.2
    Rank: 2
  • TA的每日心情
    奋斗
    2015-5-9 18:15
  • 签到天数: 9 天[LV.3]偶尔看看II
    激情
    64
    金币
    17
    威望
    5
    积分
    109
    帖子
    9
    沙发
    发表于 2015-4-21 12:05:59 |只看该作者
    看看效果,谢谢分享
    伟德手机版bet1946mobi 使用道具 举报
    0主题 0好友 684积分
    专业龙套 Lv.4
    Rank: 4
  • TA的每日心情
    开心
    2016-9-5 14:45
  • 签到天数: 90 天[LV.6]常住居民II
    激情
    315
    金币
    230
    威望
    5
    积分
    684
    帖子
    39
    板凳
    发表于 2015-4-21 12:34:45 |只看该作者
    试试试试看好不好看
    伟德手机版bet1946mobi 使用道具 举报
    0主题 0好友 36积分
    初级观众 Lv.1
    Rank: 1
  • TA的每日心情
    开心
    2015-4-21 20:55
  • 签到天数: 1 天[LV.1]初来乍到
    激情
    10
    金币
    8
    威望
    5
    积分
    36
    帖子
    7
    地板
    发表于 2015-4-21 21:07:02 |只看该作者
    看着像3D游戏
    伟德手机版bet1946mobi 使用道具 举报
    0主题 0好友 295积分
    群众演员 Lv.3
    Rank: 3Rank: 3
  • TA的每日心情
    开心
    2016-4-25 12:24
  • 签到天数: 21 天[LV.4]偶尔看看III
    激情
    219
    金币
    1
    威望
    0
    积分
    295
    帖子
    54
    5#
    发表于 2015-4-21 21:43:52 |只看该作者
    4K的电视买了两年了,还从来没有看过
    伟德手机版bet1946mobi 使用道具 举报
    0主题 0好友 719积分
    专业龙套 Lv.4
    Rank: 4
  • TA的每日心情

    2016-5-15 21:49
  • 签到天数: 72 天[LV.6]常住居民II
    激情
    331
    金币
    207
    威望
    0
    积分
    719
    帖子
    111
    6#
    发表于 2015-4-23 04:14:44 |只看该作者
    感谢分享。
    伟德手机版bet1946mobi 使用道具 举报
    0主题 0好友 5积分
    初级观众 Lv.1
    Rank: 1 该用户从未签到
    激情
    3
    金币
    1
    威望
    0
    积分
    5
    帖子
    1
    7#
    发表于 2015-4-23 22:19:26 |只看该作者
    下载欣赏一下,谢谢楼主了。
    伟德手机版bet1946mobi 使用道具 举报
    0主题 0好友 16积分
    初级观众 Lv.1
    Rank: 1 该用户从未签到
    激情
    10
    金币
    0
    威望
    0
    积分
    16
    帖子
    6
    8#
    发表于 2015-4-24 07:39:58 |只看该作者
    世界那么大,想去看看
    伟德手机版bet1946mobi 使用道具 举报
    0主题 0好友 16积分
    初级观众 Lv.1
    Rank: 1 该用户从未签到
    激情
    10
    金币
    0
    威望
    0
    积分
    16
    帖子
    6
    9#
    发表于 2015-4-24 10:29:35 |只看该作者
    怎么看不出来啊?
    伟德手机版bet1946mobi 使用道具 举报
    0主题 0好友 52积分
    普通观众 Lv.2
    Rank: 2
  • TA的每日心情
    奋斗
    2015-5-11 09:02
  • 签到天数: 2 天[LV.1]初来乍到
    激情
    23
    金币
    6
    威望
    5
    积分
    52
    帖子
    11
    10#
    发表于 2015-4-25 14:33:30 |只看该作者
    怎么看不出来啊?
    伟德手机版bet1946mobi 使用道具 举报
    *滑动验证:
    您需要登录后才可以回帖 登录 | 立即注册
    加论坛微信好友
    Archiver|手机版|HDSky伟德国际娱乐论坛 GMT+8, 2018-7-16 22:43 , Processed in 0.114462 second(s), 42 queries .
    Powered by Discuz! X2.5 © 2012-2016 HDSky Inc.
    回顶部