HDSky伟德国际娱乐论坛

 找回密码
 立即注册
用QQ账号登陆 用微博账号登陆 只需一步,快速开始
 精彩推荐 (提示:迅雷无法下载,请尝试百度网盘离线、BitComet、Utorrent 、IDM等下载工具),好电影,怎能只看一次!
查看: 7706|伟德手机版bet1946mobi: 119
打印 上一主题 下一主题

你的名字 2016.1080p.BluRay.REMUX.AVC.DTS-HD.MA.5.1-FGT 31.93GB

  [复制链接]
4638主题 34好友 454万积分
管理员
Rank: 9Rank: 9Rank: 9
  • TA的每日心情
    开心
    2018-7-21 14:25
  • 签到天数: 136 天[LV.7]常住居民III
    激情
    17437
    金币
    4465679
    威望
    27245
    积分
    4546965
    帖子
    9179
    宣传大使 原创先锋奖 回帖大师 最佳帅哥奖 热心助人奖 管理人员勋章 财富大师奖 巡查大使勋章 特殊贡献奖 魅力会员奖 个性SHOW奖 时尚达人 在线王 天秤座 终身成就奖 知名影评人勋章 精品大师奖
    跳转到指定楼层
    楼主
    发表于 2017-7-26 20:26:19 |只看该作者 |倒序浏览
    f55543d16153c9fb99182cea5b9994a6.jpg

    ◎译  名 你的名字。/你的名字/君之名
    ◎片  名 君の名は。
    ◎年  代 2016
    ◎产  地 日本
    ◎类  别 剧情/爱情/动画
    ◎语  言 日语
    ◎上映日期 2016-08-26(日本)/2016-12-02(中国大陆)
    ◎IMDb评分  8.5/10 from 41,929 users
    ◎IMDb链接  http://www.imdb.com/title/tt5311514/
    ◎豆瓣评分 8.5/10 from 367,821 users
    ◎豆瓣链接 https://movie.douban.com/subject/26683290/
    ◎片  长 106分钟
    ◎导  演 新海诚 Makoto Shinkai
    ◎主  演 神木隆之介 Ryûnosuke Kamiki
          上白石萌音 Mone Kamishiraishi
          长泽雅美 Masami Nagasawa
          市原悦子 Etsuko Ichihara
          成田凌 Ryo Narita
          悠木碧 Aoi Yuki
          岛崎信长 Nobunaga Shimazaki
          石川界人 Kaito Ishikawa
          谷花音 Tani Kanon

    ◎简  介

      在远离大都会的小山村,住着巫女世家出身的高中女孩宫水三叶(上白石萌音 配音)。校园和家庭的原因本就让她充满烦恼,而近一段时间发生的奇怪事件,又让三叶摸不清头脑。不知从何时起,三叶在梦中就会变成一个住在东京的高中男孩。那里有陌生的同学和朋友,有亲切的前辈和繁华的街道,一切都是如此诱人而真实。另一方面,住在东京的高中男孩立花泷(神木隆之介 配音)则总在梦里来到陌生的小山村,以女孩子的身份过着全新的生活。许是受那颗神秘彗星的影响,立花和三叶在梦中交换了身份。他们以他者的角度体验着对方的人生,这期间有愤怒、有欢笑也有暖心。只是两人并不知道,身份交换的背后隐藏着重大而锥心的秘密……
      本片为2016年度日本本土影片票房冠军。

    ◎获奖情况

      第40届日本电影学院奖  (2017)
      最佳动画片(提名)
      最佳导演(提名) 新海诚
      最佳编剧 新海诚
      最佳配乐

      第44届动画安妮奖  (2017)
      最佳独立动画长片(提名)
      最佳导演(提名) 新海诚

      第11届亚洲电影大奖  (2017)
      最佳编剧(提名) 新海诚

      第42届洛杉矶影评人协会奖  (2016)
      最佳动画片

    Video
    ID                                       : 1
    Format                                   : AVC
    Format/Info                              : Advanced Video Codec
    Format profile                           : High@L4.1
    Format settings, CABAC                   : Yes
    Format settings, ReFrames                : 4 frames
    Codec ID                                 : V_MPEG4/ISO/AVC
    Duration                                 : 1 h 46 min
    Bit rate mode                            : Variable
    Maximum bit rate                         : 35.0 Mb/s
    Width                                    : 1 920 pixels
    Height                                   : 1 080 pixels
    Display aspect ratio                     : 16:9
    Frame rate mode                          : Constant
    Frame rate                               : 23.976 (24000/1001) FPS
    Color space                              : YUV
    Chroma subsampling                       : 4:2:0
    Bit depth                                : 8 bits
    Scan type                                : Progressive
    Title                                    : Kimi.no.na.wa.aka.Your.Name.2016.JAPANESE.1080p.BluRay.REMUX.AVC.DTS-HD.MA.5.1-FGT
    Language                                 : English
    Default                                  : No
    Forced                                   : No

    Audio #1
    ID                                       : 2
    Format                                   : DTS
    Format/Info                              : Digital Theater Systems
    Format profile                           : MA / Core
    Mode                                     : 16
    Format settings, Endianness              : Big
    Codec ID                                 : A_DTS
    Duration                                 : 1 h 46 min
    Bit rate mode                            : Variable / Constant
    Bit rate                                 : Unknown / 1 509 kb/s
    Channel(s)                               : 6 channels
    Channel positions                        : Front: L C R, Side: L R, LFE
    Sampling rate                            : 48.0 kHz
    Frame rate                               : 93.750 FPS (512 spf)
    Bit depth                                : 24 bits
    Compression mode                         : Lossless / Lossy
    Title                                    : Kimi.no.na.wa.aka.Your.Name.2016.JAPANESE.1080p.BluRay.REMUX.AVC.DTS-HD.MA.5.1-FGT
    Language                                 : Japanese
    Default                                  : Yes
    Forced                                   : No

    Audio #2
    ID                                       : 3
    Format                                   : DTS
    Format/Info                              : Digital Theater Systems
    Mode                                     : 16
    Format settings, Endianness              : Big
    Codec ID                                 : A_DTS
    Duration                                 : 1 h 46 min
    Bit rate mode                            : Constant
    Bit rate                                 : 1 509 kb/s
    Channel(s)                               : 6 channels
    Channel positions                        : Front: L C R, Side: L R, LFE
    Sampling rate                            : 48.0 kHz
    Frame rate                               : 93.750 FPS (512 spf)
    Bit depth                                : 24 bits
    Compression mode                         : Lossy
    Stream size                              : 1.12 GiB (4%)
    Title                                    : Kimi.no.na.wa.aka.Your.Name.2016.JAPANESE.1080p.BluRay.REMUX.AVC.DTS-HD.MA.5.1-FGT
    Language                                 : Japanese
    Default                                  : No
    Forced                                   : No

    Audio #3
    ID                                       : 4
    Format                                   : DTS
    Format/Info                              : Digital Theater Systems
    Format profile                           : MA / Core
    Mode                                     : 16
    Format settings, Endianness              : Big
    Codec ID                                 : A_DTS
    Duration                                 : 1 h 46 min
    Bit rate mode                            : Variable / Constant
    Bit rate                                 : Unknown / 768 kb/s
    Channel(s)                               : 2 channels
    Channel positions                        : Front: L R
    Sampling rate                            : 48.0 kHz
    Frame rate                               : 93.750 FPS (512 spf)
    Bit depth                                : 16 bits
    Compression mode                         : Lossless / Lossy
    Title                                    : Kimi.no.na.wa.aka.Your.Name.2016.JAPANESE.1080p.BluRay.REMUX.AVC.DTS-HD.MA.5.1-FGT
    Language                                 : Japanese
    Default                                  : No
    Forced                                   : No

    Audio #4
    ID                                       : 5
    Format                                   : DTS
    Format/Info                              : Digital Theater Systems
    Mode                                     : 16
    Format settings, Endianness              : Big
    Codec ID                                 : A_DTS
    Duration                                 : 1 h 46 min
    Bit rate mode                            : Constant
    Bit rate                                 : 768 kb/s
    Channel(s)                               : 2 channels
    Channel positions                        : Front: L R
    Sampling rate                            : 48.0 kHz
    Frame rate                               : 93.750 FPS (512 spf)
    Bit depth                                : 16 bits
    Compression mode                         : Lossy
    Stream size                              : 586 MiB (2%)
    Title                                    : Kimi.no.na.wa.aka.Your.Name.2016.JAPANESE.1080p.BluRay.REMUX.AVC.DTS-HD.MA.5.1-FGT
    Language                                 : Japanese
    Default                                  : No
    Forced                                   : No

    Audio #5
    ID                                       : 6
    Format                                   : DTS
    Format/Info                              : Digital Theater Systems
    Format profile                           : MA / Core
    Mode                                     : 16
    Format settings, Endianness              : Big
    Codec ID                                 : A_DTS
    Duration                                 : 1 h 46 min
    Bit rate mode                            : Variable / Constant
    Bit rate                                 : Unknown / 1 509 kb/s
    Channel(s)                               : 6 channels
    Channel positions                        : Front: L C R, Side: L R, LFE
    Sampling rate                            : 48.0 kHz
    Frame rate                               : 93.750 FPS (512 spf)
    Bit depth                                : 16 bits
    Compression mode                         : Lossless / Lossy
    Title                                    : Kimi.no.na.wa.aka.Your.Name.2016.JAPANESE.1080p.BluRay.REMUX.AVC.DTS-HD.MA.5.1-FGT
    Language                                 : Japanese
    Default                                  : No
    Forced                                   : No

    Audio #6
    ID                                       : 7
    Format                                   : DTS
    Format/Info                              : Digital Theater Systems
    Mode                                     : 16
    Format settings, Endianness              : Big
    Codec ID                                 : A_DTS
    Duration                                 : 1 h 46 min
    Bit rate mode                            : Constant
    Bit rate                                 : 1 509 kb/s
    Channel(s)                               : 6 channels
    Channel positions                        : Front: L C R, Side: L R, LFE
    Sampling rate                            : 48.0 kHz
    Frame rate                               : 93.750 FPS (512 spf)
    Bit depth                                : 16 bits
    Compression mode                         : Lossy
    Stream size                              : 1.12 GiB (4%)
    Title                                    : Kimi.no.na.wa.aka.Your.Name.2016.JAPANESE.1080p.BluRay.REMUX.AVC.DTS-HD.MA.5.1-FGT
    Language                                 : Japanese
    Default                                  : No
    Forced                                   : No

    Audio #7
    ID                                       : 8
    Format                                   : DTS
    Format/Info                              : Digital Theater Systems
    Format profile                           : MA / Core
    Mode                                     : 16
    Format settings, Endianness              : Big
    Codec ID                                 : A_DTS
    Duration                                 : 1 h 46 min
    Bit rate mode                            : Variable / Constant
    Bit rate                                 : Unknown / 768 kb/s
    Channel(s)                               : 2 channels
    Channel positions                        : Front: L R
    Sampling rate                            : 48.0 kHz
    Frame rate                               : 93.750 FPS (512 spf)
    Bit depth                                : 16 bits
    Compression mode                         : Lossless / Lossy
    Title                                    : Kimi.no.na.wa.aka.Your.Name.2016.JAPANESE.1080p.BluRay.REMUX.AVC.DTS-HD.MA.5.1-FGT
    Language                                 : Japanese
    Default                                  : No
    Forced                                   : No

    Audio #8
    ID                                       : 9
    Format                                   : DTS
    Format/Info                              : Digital Theater Systems
    Mode                                     : 16
    Format settings, Endianness              : Big
    Codec ID                                 : A_DTS
    Duration                                 : 1 h 46 min
    Bit rate mode                            : Constant
    Bit rate                                 : 768 kb/s
    Channel(s)                               : 2 channels
    Channel positions                        : Front: L R
    Sampling rate                            : 48.0 kHz
    Frame rate                               : 93.750 FPS (512 spf)
    Bit depth                                : 16 bits
    Compression mode                         : Lossy
    Stream size                              : 586 MiB (2%)
    Title                                    : Kimi.no.na.wa.aka.Your.Name.2016.JAPANESE.1080p.BluRay.REMUX.AVC.DTS-HD.MA.5.1-FGT
    Language                                 : Japanese
    Default                                  : No
    Forced                                   : No

    Text #1
    ID                                       : 10
    Format                                   : PGS
    Muxing mode                              : zlib
    Codec ID                                 : S_HDMV/PGS
    Codec ID/Info                            : Picture based subtitle format used on BDs/HD-DVDs
    Title                                    : English-SDH-PGS
    Language                                 : English
    Default                                  : Yes
    Forced                                   : No

    Text #2
    ID                                       : 11
    Format                                   : PGS
    Muxing mode                              : zlib
    Codec ID                                 : S_HDMV/PGS
    Codec ID/Info                            : Picture based subtitle format used on BDs/HD-DVDs
    Title                                    : English-PGS
    Language                                 : English
    Default                                  : No
    Forced                                   : No

    Text #3
    ID                                       : 12
    Format                                   : PGS
    Muxing mode                              : zlib
    Codec ID                                 : S_HDMV/PGS
    Codec ID/Info                            : Picture based subtitle format used on BDs/HD-DVDs
    Title                                    : Japanese-PGS
    Language                                 : Japanese
    Default                                  : No
    Forced                                   : No

    Text #4
    ID                                       : 13
    Format                                   : PGS
    Muxing mode                              : zlib
    Codec ID                                 : S_HDMV/PGS
    Codec ID/Info                            : Picture based subtitle format used on BDs/HD-DVDs
    Title                                    : Chinese-PGS
    Language                                 : Chinese
    Default                                  : No
    Forced                                   : No

    Menu
    00:00:00.000                             : ja:Chapter 01
    00:01:34.094                             : ja:Chapter 02
    00:03:21.868                             : ja:Chapter 03
    00:05:13.271                             : ja:Chapter 04
    00:08:37.308                             : ja:Chapter 05
    00:12:11.313                             : ja:Chapter 06
    00:14:32.371                             : ja:Chapter 07
    00:17:22.499                             : ja:Chapter 08
    00:22:57.918                             : ja:Chapter 09
    00:27:05.624                             : ja:Chapter 10
    00:28:16.569                             : ja:Chapter 11
    00:29:53.541                             : ja:Chapter 12
    00:32:42.835                             : ja:Chapter 13
    00:37:26.994                             : ja:Chapter 14
    00:41:57.765                             : ja:Chapter 15
    00:44:30.334                             : ja:Chapter 16
    00:45:54.001                             : ja:Chapter 17
    00:48:28.655                             : ja:Chapter 18
    00:53:01.386                             : ja:Chapter 19
    00:56:53.868                             : ja:Chapter 20
    01:03:42.318                             : ja:Chapter 21
    01:06:03.793                             : ja:Chapter 22
    01:09:44.930                             : ja:Chapter 23
    01:12:41.815                             : ja:Chapter 24
    01:16:42.472                             : ja:Chapter 25
    01:21:21.710                             : ja:Chapter 26
    01:29:12.805                             : ja:Chapter 27
    01:32:51.857                             : ja:Chapter 28
    01:37:01.732                             : ja:Chapter 29
    01:41:19.615                             : ja:Chapter 30
    01:46:34.638                             : ja:Chapter 31

    23af9d35c12544ea660ed90f9864aae2.jpg
    024e690c1d11cf3b3859f052a3fac7d2.jpg
    915bef013a0241aca65ae088e20b6c21.jpg

    伟德手机版bet1946mobi下载:

    xiazai.jpg
    游客,如果您要查看本帖隐藏内容请伟德手机版bet1946mobi  VIP免伟德手机版bet1946mobi、免金币快速下载全站资源 自助在线开通VIP



    支付宝扫码 打赏

    微信扫一扫 打赏
    郑重声明 HDSky所有影视作品来自互联网公开渠道,内容系自动转载供网友交流学习,影视版权均归原电影公司所有, 我们不提供任何影片压制、存储及传播服务,如果喜欢请购买正版!转载内容如有侵权请与 admin@hdsky.net 联系 我们将尽快删除!
    0主题 0好友 328积分
    群众演员 Lv.3
    Rank: 3Rank: 3
  • TA的每日心情
    郁闷
    2017-3-19 18:35
  • 签到天数: 1 天[LV.1]初来乍到
    激情
    294
    金币
    4
    威望
    0
    积分
    328
    帖子
    30
    沙发
    发表于 2017-7-26 21:23:11 |只看该作者
    这么大?!!!!!!!!
    伟德手机版bet1946mobi 使用道具 举报
    0主题 0好友 161积分
    普通观众 Lv.2
    Rank: 2
  • TA的每日心情
    开心
    2017-8-15 08:17
  • 签到天数: 32 天[LV.5]常住居民I
    激情
    74
    金币
    67
    威望
    5
    积分
    161
    帖子
    10
    板凳
    发表于 2017-7-26 21:24:53 |只看该作者
    谢谢分享
    伟德手机版bet1946mobi 使用道具 举报
    0主题 0好友 706积分
    专业龙套 Lv.4
    Rank: 4 该用户从未签到
    激情
    611
    金币
    95
    威望
    0
    积分
    706
    帖子
    0
    新人进步会员奖
    地板
    发表于 2017-7-26 21:30:27 |只看该作者
    不得了不得了~~~~
    伟德手机版bet1946mobi 使用道具 举报
    0主题 0好友 204积分
    群众演员 Lv.3
    Rank: 3Rank: 3
  • TA的每日心情
    擦汗
    2016-3-25 00:13
  • 签到天数: 5 天[LV.2]偶尔看看I
    激情
    183
    金币
    6
    威望
    0
    积分
    204
    帖子
    15
    5#
    发表于 2017-7-26 23:21:46 |只看该作者
    gtrsytygfv
    伟德手机版bet1946mobi 使用道具 举报
    0主题 0好友 632积分
    专业龙套 Lv.4
    Rank: 4
  • TA的每日心情
    开心
    2018-1-30 11:04
  • 签到天数: 79 天[LV.6]常住居民II
    激情
    508
    金币
    64
    威望
    10
    积分
    632
    帖子
    40
    6#
    发表于 2017-7-27 09:20:13 |只看该作者
    等了好久终于等到
    伟德手机版bet1946mobi 使用道具 举报
    0主题 0好友 1713积分
    荣升主角 Lv.5
    Rank: 6Rank: 6
  • TA的每日心情
    开心
    2018-7-12 12:55
  • 签到天数: 428 天[LV.9]以坛为家II
    激情
    1415
    金币
    180
    威望
    0
    积分
    1713
    帖子
    118
    7#
    发表于 2017-7-27 10:47:05 |只看该作者
    6566456
    伟德手机版bet1946mobi 使用道具 举报
    0主题 0好友 1941积分
    荣升主角 Lv.5
    Rank: 6Rank: 6
  • TA的每日心情
    奋斗
    6 天前
  • 签到天数: 312 天[LV.8]以坛为家I
    激情
    1150
    金币
    503
    威望
    5
    积分
    1941
    帖子
    278
    新人进步会员奖 热心助人奖 鼎立支持奖
    8#
    发表于 2017-7-27 12:39:01 |只看该作者
    伟德手机版bet1946mobi 使用道具 举报
    0主题 0好友 993积分
    专业龙套 Lv.4
    Rank: 4
  • TA的每日心情
    开心
    2018-8-5 14:30
  • 签到天数: 82 天[LV.6]常住居民II
    激情
    745
    金币
    69
    威望
    0
    积分
    993
    帖子
    179
    9#
    发表于 2017-7-27 16:17:29 |只看该作者
    怎么能不支持一下呢~~~~~!
    伟德手机版bet1946mobi 使用道具 举报
    0主题 0好友 497积分
    群众演员 Lv.3
    Rank: 3Rank: 3
  • TA的每日心情
    郁闷
    2017-8-5 12:52
  • 签到天数: 62 天[LV.6]常住居民II
    激情
    439
    金币
    -20
    威望
    0
    积分
    497
    帖子
    78
    10#
    发表于 2017-7-27 19:45:47 |只看该作者
    终于等到了
    伟德手机版bet1946mobi 使用道具 举报
    您需要登录后才可以回帖 登录 | 立即注册
    Archiver|手机版|HDSky伟德国际娱乐论坛 GMT+8, 2018-10-22 18:30 , Processed in 0.134808 second(s), 45 queries .
    Powered by Discuz! X2.5 © 2012-2016 HDSky Inc.
    回顶部